#TITLE:Sinistral Battle;
#SUBTITLE:Lufia;
#ARTIST:S.Sakamoto;
#TITLETRANSLIT:;
#SUBTITLETRANSLIT:;
#ARTISTTRANSLIT:;
#CREDIT:;
#BANNER:Sinistral Battle-banner.png;
#BACKGROUND:gades.png;
#LYRICSPATH:;
#CDTITLE:;
#MUSIC:Lufia - Sinistral Battle.MP3;
#OFFSET:-0.380;
#SAMPLESTART:100.000;
#SAMPLELENGTH:11.800;
#SELECTABLE:YES;
#BPMS:0.000=193.000;
#STOPS:;
#BGCHANGES:0.000=Lufia=1.000=0=0=1,
99999=-nosongbg-=1.000=0=0=0 // don't automatically add -songbackground-
;
// cache tags:
#FIRSTBEAT:0.000;
#LASTBEAT:957.000;
#SONGFILENAME:Songs/Songfolder/Lufia - Sinistral Battle/Lufia - Sinistral Battle.sm;
#HASMUSIC:1;
#HASBANNER:1;
#MUSICLENGTH:300.664;
// end cache tags

//---------------dance-single - Copied from Copied f----------------
#NOTES:
     dance-single:
     Copied from Copied f:
     Challenge:
     8:
     0.883,1.000,1.000,1.000,0.266,1074.000,479.000,305.000,119.000,1.000:
0010
0000
0000
1100
0000
0000
1000
0100
0010
0001
0000
0000
,
1001
0100
1000
0020
0030
0001
0100
2000
,
3000
0010
1000
0002
0003
0100
1000
0000
,
0101
0010
1000
0200
0300
0001
0010
2000
,
3000
0100
0010
0200
0300
0010
0100
0000
,
1001
0110
1001
0202
0303
1010
0101
2020
,
3030
0101
1010
0202
0303
0101
1010
0000
,
1001
0010
0100
0022
0033
1000
0100
0001
,
0010
1000
0001
0220
0330
1000
0100
0000
,
0220
0330
1010
0101
,
1000
0100
0010
0001
0010
0100
1000
0000
0000
1010
0000
0000
,
1000
0000
0100
0000
0010
0000
0001
0000
0000
0010
0000
0000
0000
0000
0000
1000
0000
0000
0101
0000
0000
0000
0000
0000
,
1000
0000
0100
0000
0010
0000
0001
0000
0000
0010
0000
0000
0000
0000
0000
1000
0000
0000
0100
0000
0000
0000
0000
0000
,
2020
0000
0000
3030
,
1001
0000
1010
0101
0000
1001
0000
0000
,
2200
0000
3300
1001
,
0210
0000
0300
0011
,
0202
0000
0303
1000
,
2020
0000
0000
3030
0101
0000
1100
0000
,
2002
0000
0000
0000
0000
0000
3003
0100
,
1000
0101
0000
0110
1100
0000
1010
0000
,
0000
0000
0011
0000
1000
0100
0000
0000
,
0000
1100
0000
1010
1010
0000
0101
0000
,
2020
0000
0000
0000
0000
3030
0100
0000
,
0202
0000
0000
0000
0000
0303
0000
0110
,
0000
2200
0000
0000
0000
3300
0000
0010
,
0000
0200
0000
0300
1000
0000
0000
0100
,
0000
2020
0000
0000
0000
3030
0000
0100
,
1000
0000
0000
0202
0000
0000
0303
0000
0000
0000
0000
0000
1000
0000
0100
0000
0010
0000
0001
0000
0000
0000
0000
0000
,
0M10
0000
0000
M100
0000
00M1
M100
0000
,
0M00
1000
0000
1001
01M0
0000
M11M
0000
,
0000
2020
0000
0000
0030
0000
3000
1100
,
0220
0000
0030
0000
00M0
0300
0000
1100
,
0000
2020
0000
0030
0000
30M0
0000
1010
,
0000
0202
0000
0303
2020
0030
3000
0011
,
0000
2200
0000
0300
3000
0000
0000
0M10
,
1001
0100
0000
001M
1100
0000
10M0
0000
,
0000
0000
0000
0012
0000
0100
1000
0000
,
0000
0010
0000
0103
0010
0000
0101
0000
,
0000
0202
0000
0000
0003
0000
030M
1010
,
0220
0000
0000
0030
0000
03M0
0000
1010
,
0000
2002
0000
0000
0003
0000
3000
0110
,
0000
0202
0000
0303
1010
0000
0100
0001
,
1100
2020
0000
0000
0000
3030
0000
1000
,
0100
0000
0000
1000
0000
0000
0100
0000
0010
0000
0001
0000
0010
0000
0100
0000
1000
0000
0100
0000
0000
0000
0000
0000
,
0000
0110
0MM0
0000
M1M1
0000
0000
1100
,
0000
0022
0030
0000
0003
0000
0000
1010
,
0001
1100
0220
0000
0000
0000
0330
0000
,
1010
0102
0003
0201
,
0300
0000
0000
1000
0100
0010
0000
1000
0100
0010
0000
1000
,
0100
0010
0000
1000
0100
0010
0001
0000
0000
0010
0000
0000
,
1010
0000
0000
0001
0010
0100
0000
0001
0010
0100
0000
0001
,
0010
0100
0000
0001
0010
0100
1000
0000
0000
1100
0000
0000
,
0101
0000
1010
0000
0000
1001
0000
0000
,
1100
0000
2M2M
0000
0000
0000
3030
0001
,
0100
0010
M2M2
0000
0003
0000
0300
0000
,
1100
M2M2
0303
22MM
,
3300
0000
0000
1000
0100
0010
0001
0000
0100
0010
0001
0000
,
0100
0010
0001
0000
0100
0010
0000
0000
0000
1001
0000
0000
,
0110
0000
0000
0001
0010
0100
0000
0000
1000
0100
0010
0000
,
0000
0001
0010
0100
0000
0000
1000
0100
0000
101M
0000
0000
,
0M10
0000
01M1
0010
1001
0100
0010
0110
,
0001
1010
0000
0M01
0000
01M0
0000
1M00
,
101M
0000
01M1
1000
0010
01M1
1000
001M
,
1100
M010
0000
00M1
2200
0000
3300
0000
,
0110
0010
0101
1000
1000
0100
0010
1000
,
0101
0110
1001
0000
0110
0000
1001
0101
,
1010
0000
110M
0000
1010
0000
1M01
0110
,
1010
0202
0000
0000
0303
0000
0000
0110
,
1000
0101
0110
0000
0011
0000
0010
0100
,
1001
0101
0000
0011
0000
1100
0000
0110
,
2002
3000
0010
0000
1000
0000
0100
1010
,
0103
2020
3030
0101
2200
0000
3300
0101
,
1010
0110
0000
1100
0000
1010
0000
0101
,
0011
1100
0110
0000
0101
0000
1010
0000
,
0110
2020
3030
0101
0000
1100
0000
0101
,
1100
0110
2002
0000
0003
0000
300M
0000
,
0000
0000
0000
0001
0010
0100
1000
0100
0010
0001
0010
0100
,
1000
0000
0100
0000
0010
0000
0000
0000
0000
0101
0000
0000
0110
0000
0000
1100
0000
0000
0220
0000
0000
0330
0000
0000
,
0001
0110
2000
3000
0101
1010
0220
0330
,
0101
0010
0000
1001
0100
1000
0220
0330
,
1001
0110
2200
3300
0011
0001
0020
0030
,
1010
0110
0000
0011
0110
1100
0202
0303
,
0101
0110
2200
3300
0011
1100
0220
0330
,
1010
0110
0000
0011
0100
1000
0100
0000
,
1001
0110
1001
0110
1001
0110
1001
0000
,
1100
0100
0000
0220
0000
0000
0000
0000
,
0330
0000
0000
0001
0100
0010
0001
0100
0010
0001
0100
0010
,
0001
0100
0010
0001
0100
0010
0001
0000
0000
2200
0000
0000
,
0000
0000
3300
0000
1001
0010
0010
0100
,
1010
0000
0000
2002
0000
0000
0000
0000
,
3003
0000
0000
10M2
0000
1M00
0010
0000
,
M103
0000
0000
2200
0000
3000
0000
M300
,
0000
0000
1001
0202
0000
0000
0003
0000
,
030M
0000
1010
0000
2200
0000
0000
3300
,
0000
0000
0101
0000
0020
0000
0030
1100
,
0000
0000
1010
0000
0202
0000
0300
0003
,
0000
0000
0M01
1000
001M
0000
0100
M001
,
0000
0010
0M01
1000
0000
M010
0001
10M0
,
0100
0001
1M00
0010
0M01
1000
001M
0100
,
00M1
1000
010M
1000
0220
0000
0030
0000
,
03M0
0000
0011
0220
0000
0000
0330
0000
,
0000
1010
0011
1100
0202
0000
0000
0000
,
0003
030M
0000
1100
,
0110
0000
0011
0000
1100
0011
0100
0110
,
0000
0000
0000
1000
0100
0010
0001
0010
0100
1000
0100
0010
,
0001
0010
0100
1000
0000
0000
0000
0000
0000
1001
0000
0000
,
0011
0101
M000
0000
011M
0000
10M0
0001
,
0000
M100
0000
0000
2002
0000
0000
3003
,
0000
0000
1001
0110
0000
0110
0000
0110
,
0110
1001
0220
0000
,
0330
0000
1010
0000
0202
0000
0303
0011
,
0000
0000
1010
0000
0220
0000
0000
0330
,
0000
0000
1100
0101
0012
0003
0100
0010
,
0000
2020
3030
0000
0000
0000
0011
0000
,
1000
0110
0000
0000
0000
0101
0000
0110
,
0011
0000
0110
0000
0000
2020
0000
0000
,
3030
0000
0000
1001
0210
0000
0000
0000
,
0300
1000
0202
0303
,
0000
0000
0011
0000
020M
0300
0000
M011
,
0000
M01M
0202
0300
,
0003
0000
0000
1100
1100
2020
0000
0000
,
0000
0000
3030
0000
0000
0202
0303
0000
,
2020
3030
0000
1100
0000
0202
0000
0303
,
0000
0000
0010
0001
0100
2000
0000
3000
,
0000
0000
0000
1010
0000
2100
3000
0000
,
0210
0000
0300
0000
0000
0001
1000
0010
,
0001
0100
0010
0001
1000
0010
0001
0100
,
1000
0001
0010
0001
0100
0010
0001
1000
,
0100
0010
1000
0001
0010
1000
0001
0010
,
0100
0001
0010
0100
1000
0220
M33M
0000
,
2200
33MM
0000
1100
0000
0202
0000
0000
,
0303
0000
1010
0100
1001
0210
0000
0000
,
0000
0000
0300
1010
0000
2200
0000
3300
,
0000
0000
0000
2020
0000
0000
3030
0000
0000
0000
0000
0000
0000
0000
0100
0000
0010
0000
0001
0000
0000
0000
0000
0000
,
0100
0010
0001
0000
0000
0100
0010
0001
0000
0000
0100
0010
,
0001
0000
0000
0101
0000
0000
0001
0000
1000
0100
0010
0000
,
0000
1000
0100
0010
0000
0000
1000
0100
0010
0000
0000
1000
,
0100
0000
0010
0000
0000
0000
0001
0000
0000
0000
0000
0000
0100
0000
0000
0000
0000
0000
1000
0000
0000
1100
0000
0000
,
0011
0001
0000
1010
0101
0000
1000
0100
,
M010
0M01
00M0
000M
0200
0300
2000
0100
,
0010
0000
0000
0M01
0000
0000
00M0
0000
0000
001M
0000
0000
3100
0000
0000
0000
0000
0000
1000
0000
0100
0000
0010
0000
,
0001
0000
0000
0000
1010
0101
0022
0033
,
0000
0220
0000
0000
0330
0000
0000
0000
,
101M
0000
101M
0000
0000
0110
0200
0000
,
1000
0000
0001
0010
2000
0000
0000
3300
,
0000
0000
0000
1001
0101
1010
2002
0000
,
0000
0000
0000
3003
0000
1010
0202
0000
,
0303
0000
0000
1001
1001
1010
2002
0000
,
0000
0000
3003
0000
1010
1100
0201
0000
,
0000
0000
0300
0000
1000
1010
2200
0000
,
3300
0202
0000
0303
,
1010
0000
0020
0030
0000
0100
2001
0000
,
0000
0000
3000
0000
,
1010
0000
1001
0000
1100
0000
2010
3000
,
0000
2020
0000
0000
0030
0000
3000
0000
,
1001
1100
1010
1100
1001
1100
2010
0000
,
0000
0000
0000
3000
0000
0000
0000
0000
0100
0000
0010
0000
0001
0000
1000
0000
0100
0000
0010
0000
0001
0000
1000
0000
,
0100
0010
0001
1000
0100
0010
0001
0000
0000
1100
0000
0000
,
0000
02M2
0303
0000
1100
0000
M020
0000
,
0000
0000
0030
0000
1100
0101
0022
0000
,
0033
0220
0330
0000
1010
0000
2020
0000
,
3030
0202
0303
2200
,
3300
0000
0000
1000
0100
M010
0200
03MM
,
0000
0022
0000
0033
0000
2000
3000
0200
,
0300
0000
0000
0001
0100
1000
0220
0000
,
0000
0330
2020
0000
0000
3030
2002
3003
,
0000
1100
0000
0000
0101
0000
2020
0000
,
0000
0000
3030
0000
100M
01M0
0M10
0220
,
0330
0000
2002
3000
0000
0100
0000
1003
,
0000
0000
2020
0000
0M0M
3030
0000
2002
,
0MM0
3003
0000
0000
1001
0110
0110
2002
,
0000
3000
0000
2000
0000
3003
0000
2000
,
0100
0010
0002
0000
3003
0000
0000
2000
,
0001
0010
0200
0000
3300
0000
0202
0000
,
0300
0000
2000
3000
0000
0010
0000
2000
,
0000
0000
3003
0000
0000
0110
0011
2200
,
0000
3300
1010
0000
0000
0101
0000
2020
,
3030
0000
2002
0000
0000
3000
0000
0200
,
0000
0303
0000
0000
M001
0010
010M
2000
,
0000
3000
1100
0000
0000
0101
0000
2200
,
0000
3300
0000
0000
1010
1100
0001
2000
,
0000
0000
0000
0000
0000
0000
3000
0000
0000
2020
0000
0000
3030
0000
0000
0000
0000
0000
0000
0000
1000
0000
0100
0000
,
0010
0000
0001
0000
0000
0000
0200
0000
0000
0300
0000
0000
0000
0000
0000
0010
0000
0000
0000
0000
0001
0000
0010
0000
,
0100
0000
1000
0000
0000
0000
0202
0000
0000
0300
0003
0000
0000
0000
0000
1010
0000
0000
0100
0000
0000
2020
0000
0000
,
3030
0000
0101
0000
0000
100M
0000
M001
,
0000
0000
2002
0000
0000
3000
0000
0020
,
0000
0000
0033
0000
0110
1100
1100
2001
,
0000
0001
3000
0201
0000
0001
0300
2001
,
0000
0001
0000
0001
0000
0010
3000
0201
,
0000
0001
0000
0001
0000
0010
0300
2001
,
0000
0001
0000
0001
0000
0010
0000
0001
,
0000
0001
0000
3001
0000
1010
0100
1000
,
0220
0000
0330
0011
,
1MM0
0000
000M
2200
0000
0000
3300
0000
,
1000
0100
0010
0000
1000
0100
0010
0000
1000
0100
0010
0000
,
1000
0100
0010
0000
0000
0000
0100
0000
0000
0001
0000
0000
,
0001
0010
0100
0000
0001
0010
0100
0000
0001
0010
0100
0000
,
0001
0010
0100
0000
0000
0000
0010
0000
0000
0001
0000
0000
,
1100
0000
0000
1010
0000
0000
0100
0000
,
2002
0000
0000
3000
0000
0010
0100
1000
,
2000
0000
0000
3003
0000
0000
1100
0000
,
2020
3030
0022
0033
,
1000
0100
0010
0000
0000
1000
0100
0010
0000
0000
1000
0100
,
0010
1010
0101
0110
,
0001
0010
0100
0000
0000
1000
0100
0010
0000
0000
0001
0010
,
0100
001M
1M00
01M0
,
M001
0110
1010
0101
0110
0101
1100
0110
,
0000
0101
0000
1100
0000
1010
1100
0000
,
0011
0110
1100
0101
1100
0110
1100
0110
,
0000
0101
2020
0000
3030
0000
0110
1100
,
0110
1100
0101
1010
0101
1100
0110
1100
,
1100
0000
0110
0000
0101
0000
1100
0001
,
0000
0010
0100
0010
0100
1010
0101
0010
,
0202
0000
0000
0303
0000
0000
0110
100M
,
0100
M001
0000
100M
0000
M001
01M0
1001
,
0M10
0000
0101
0000
0110
0000
1001
0101
,
0000
0011
0000
0110
0000
1100
0110
1000
,
0011
0000
0101
2020
3030
0000
1002
0010
,
1000
0100
0000
1000
0000
0010
1000
0103
,
0010
0000
0100
0000
0011
0000
1000
0110
,
0000
1010
0000
0101
0000
1000
0110
1000
,
0202
0000
0003
030M
,
1000
0100
0010
1000
0100
0010
0001
0010
0100
0001
0010
0100
,
0000
1000
M100
0M10
00M2
0003
0100
1M00
,
M020
0030
0001
0110
2020
3030
0101
0110
,
0000
0001
1100
1010
0202
0303
0010
0100
,
0022
0033
0100
0100
2020
3030
1100
0101
,
0000
0010
1100
0010
2002
3003
0010
0100
,
0022
0033
0100
1000
0020
0030
1100
0010
,
0000
1000
M100
0M10
00M2
0003
1010
0101
,
0011
0100
1100
0100
0011
0000
1100
0110
,
0000
2001
0000
0001
0000
0001
0000
0010
,
0000
0001
0000
0001
0000
0001
3000
0000
,
0000
1000
0100
0010
0001
0010
0100
1000
0100
0010
0001
0010
,
0100
1000
0100
0010
0001
0010
0100
1000
0100
0010
0001
0000
,
0000
0000
0110
0011
1000
1100
0000
0110
,
0110
0101
0101
0110
1100
1010
0000
2002
,
0000
0000
0000
3003
,
1000
0100
0010
0001
0000
0000
0000
0000
0000
0000
0000
0000
;

//---------------dance-single - Copied from Copied f----------------
#NOTES:
     dance-single:
     Copied from Copied f:
     Hard:
     6:
     0.683,1.000,0.828,0.632,0.176,998.000,249.000,190.000,21.000,0.000:
0010
0000
0000
0100
0000
0000
1000
0100
0010
0001
0000
0000
,
0010
0100
1000
0200
0300
0010
0100
2000
,
3000
0100
0010
0002
0003
0100
0100
0000
,
1001
0010
0100
0200
0300
0001
0010
0020
,
0030
0100
1000
2000
3000
0100
0010
0000
,
1001
0010
0001
0002
0003
0100
1000
2000
,
3000
0010
0100
0200
0300
0001
0010
0000
,
1001
0110
0110
0220
0330
1001
0110
1001
,
0110
1001
1001
0220
0330
0100
0100
0000
,
0200
0300
0110
0110
,
1000
0100
0010
1000
0100
0010
0000
0000
0000
0000
0000
0000
,
1000
0100
0010
0001
0000
0000
0100
0000
0000
0100
0000
0000
,
1000
0100
0010
0001
0000
0000
0100
0000
0000
0100
0000
0000
,
2002
0000
0000
3003
,
0001
0000
0010
1000
0000
0010
0000
0000
,
2002
0000
0000
0000
3003
0000
0000
0001
,
0200
0000
0300
0010
,
2001
0000
3000
1000
,
2020
0000
0000
3030
0100
0000
1000
0000
,
2001
0000
0000
0000
0000
0000
3000
0010
,
1000
0100
0000
0010
0100
0000
0002
0000
,
0003
0000
0000
0001
0000
0100
0010
0000
,
0001
0000
1000
0100
0000
0010
0000
0000
,
0000
2010
0000
0000
3000
0000
0000
1001
,
2001
0000
0000
0000
0000
3000
0000
0110
,
0000
1002
0000
0000
0000
0003
0000
1001
,
0000
0210
0000
0300
0010
0000
0000
0100
,
0000
0020
0000
0000
0000
0030
0000
0100
,
1000
0000
0000
0100
0000
0000
0000
0000
0000
0000
0000
0000
1000
0000
0100
0000
0010
0000
0001
0000
0000
0000
0000
0000
,
1010
0000
0000
0101
0000
1001
0110
0000
,
0000
0011
0000
1001
0100
0000
0010
0000
,
0000
2001
0000
0000
3000
0000
0000
1001
,
0202
0000
0000
0000
0000
0303
0000
1010
,
0000
2020
0000
0000
0000
3030
0000
0101
,
0000
0202
0000
0303
0000
2020
3030
0100
,
0000
0200
0000
0000
0000
0300
0000
1000
,
0101
0010
0000
0010
0001
0000
1000
0000
,
0000
0000
0000
0101
0000
0010
1000
0000
,
0010
0000
1000
0000
0010
1000
0000
0100
,
0000
0201
0000
0000
0000
0000
0300
1010
,
0002
0000
0000
0000
0000
0003
0000
1010
,
0000
0201
0000
0000
0000
0000
0300
1000
,
0000
0002
0000
0003
0010
0000
0100
0010
,
0100
0020
0000
0000
0000
0030
0000
1000
,
1000
0000
0000
1000
0000
0000
0100
0000
0010
0000
0001
0000
0010
0000
0100
0000
1000
0000
1000
0000
0000
0000
0000
0000
,
0000
0100
0000
0000
1100
0000
0000
0001
,
0000
2100
0000
0000
3000
0000
0000
0010
,
0001
1000
0020
0000
0000
0000
0030
0000
,
1000
0002
0003
0201
,
0300
0000
0000
1000
0100
0010
0000
1000
0100
0010
0000
1000
,
0100
0010
0000
1000
0100
0010
0001
0000
0000
0001
0000
0000
,
0001
0000
0000
1000
0100
0010
0000
1000
0100
0010
0000
1000
,
0100
0010
0000
1000
0100
0010
0001
0000
0000
0001
0000
0000
,
0001
0000
0110
0000
0000
0110
0000
0000
,
1001
0000
0220
0000
0000
0000
0330
1001
,
0110
0110
2001
0000
0000
0000
3000
0000
,
0001
0200
0300
2000
,
3000
10M0
M001
001M
,
M100
0100
0000
1001
,
0110
M001
100M
01M0
,
0M01
0100
1000
0001
,
0010
0000
0001
0010
1000
0100
0010
0010
,
0100
1000
0000
0010
0000
0001
0000
1000
,
0010
0000
0001
1000
0010
0100
1000
0010
,
0001
0010
0001
0010
0200
0000
0300
0000
,
0010
0010
0010
1000
0000
1000
0001
0010
,
0001
0010
0100
0000
0100
0000
1001
0000
,
0110
0110
1000
0000
1001
0000
1000
0100
,
0010
0002
0000
0000
0003
0000
0000
1000
,
1000
1000
0000
0001
0000
0001
1000
0100
,
1000
0100
0010
1000
0000
1000
0000
0100
,
1001
0000
0010
0000
1000
0000
0100
0010
,
0100
0010
0100
0001
0010
0000
0000
0001
,
1000
0010
0000
1000
0000
0100
0000
1000
,
0001
0010
1000
0000
0001
0000
0010
0000
,
1010
0001
0000
0100
0000
0010
0000
1000
,
0001
0100
2001
0000
0000
0000
3000
0000
,
0000
0000
0000
0001
0010
0100
1000
0000
0000
0001
0010
0100
,
1000
0000
0000
0110
0110
0110
0220
0330
,
1001
1001
2002
3003
0110
0110
0220
0330
,
1001
0010
0000
0001
0100
1000
0100
0000
,
0001
0100
1000
0000
0010
0001
0010
0000
,
0010
0100
0000
0010
0010
1000
0100
0000
,
0001
0100
0100
0000
0010
0100
1000
0000
,
0010
0010
0000
0010
0100
0100
0100
0000
,
0001
0010
0001
0010
0001
0010
0001
0000
,
0010
0100
0000
0210
0000
0000
0000
0000
,
0300
0000
0000
1000
0100
0010
1000
0100
0010
1000
0100
0010
,
1000
0100
0010
1000
0100
0010
0001
0000
0000
2001
0000
0000
,
0000
0000
3000
0000
0001
0010
0100
0100
,
0010
0000
0000
0210
0000
0000
0000
0000
,
0300
0000
0000
1000
0000
1000
0010
0000
,
0100
0000
0000
0201
0000
0000
0000
0300
,
0000
0000
0001
0102
0000
0000
0003
0000
,
0000
0000
0010
0000
0200
0000
0000
0300
,
0000
0000
1001
0000
1020
0000
0030
1000
,
0000
0010
0201
0300
,
0000
0000
0100
0001
1000
0000
0100
0001
,
0000
1000
0001
0100
0000
0001
0010
1000
,
0001
0010
1000
0010
0100
0001
0010
1000
,
0001
0010
0100
0010
0200
0000
0000
0000
,
0300
0000
1001
0220
0000
0000
0330
0000
,
0000
1001
0110
1001
2002
0000
0000
0000
,
0000
3003
0000
0000
0000
0000
1000
0000
,
0100
0000
0010
0000
0100
0010
0100
0100
,
0000
0000
0000
1000
0100
0010
0001
0000
0000
1000
0100
0010
,
0001
1M00
0000
1M00
,
0101
0101
0000
0000
0110
0000
1000
0101
,
0000
1100
0000
0000
1020
0000
0000
0030
,
0000
0000
1001
1100
0000
0101
0000
1100
,
0011
1001
0210
0000
,
0300
0000
1010
0000
0102
0000
0003
0010
,
0000
0000
1010
0000
0120
0000
0000
0030
,
0000
0000
0100
0101
0011
0000
0100
0010
,
0000
1010
0000
0000
0000
0000
0101
0000
,
1000
0010
0000
0000
1000
0000
0001
0010
,
0000
1000
0000
0000
0000
1020
0000
0000
,
0030
0000
0000
1001
1001
0000
0010
0100
,
0010
0100
1010
0000
0202
0000
0000
0303
,
0000
0000
0010
0000
0200
0300
0000
1000
,
0000
0010
0102
0000
,
0003
0000
0000
1010
1010
2020
0000
0000
,
0000
0000
3030
0000
0000
0101
0000
0000
,
1010
0000
0000
0100
0000
0200
0000
0300
,
0000
0000
0001
0001
0100
2000
0000
3000
,
0000
0000
0000
1010
0000
0002
0003
0000
,
0200
0000
0300
0000
0000
0010
1000
0010
,
0001
0100
1000
0001
1000
0100
0001
0100
,
0010
0001
0010
0001
0100
0010
0001
0010
,
0100
0010
1000
0001
1000
0010
0001
0010
,
0100
0001
0010
0100
1000
0200
0300
0000
,
0200
0300
0000
0110
0000
0020
0000
0000
,
0030
0000
0010
0100
1000
0200
0000
0000
,
0000
0000
0300
0010
0000
0200
0000
0300
,
0000
2000
3000
0000
0000
0001
0000
0100
,
00M0
0000
0000
0100
0000
0000
0000
0000
0000
1000
000M
0000
0000
0000
0000
0010
0000
0000
0000
0000
M000
0001
0000
0000
,
0000
0000
0000
0101
0000
0000
0000
0000
0000
0001
0000
0000
0000
0000
0000
0000
1000
0000
0100
0000
0010
0000
0000
0000
,
0000
1000
0100
0010
0000
0000
1000
0100
0010
0000
0000
1000
,
0100
0000
0010
0000
0000
0000
0001
0000
0000
0000
0000
0000
0010
0000
0000
0000
0000
0000
0100
0000
0000
0100
0000
0000
,
0001
0001
0000
0010
0100
0000
0010
0100
,
0010
0100
0000
0000
0100
0000
2000
0001
,
0010
0000
0000
0001
0000
0000
0000
0000
0000
0010
0000
0000
3001
0000
0000
0000
0000
0000
1000
0000
0100
0000
0010
0000
,
0001
0000
0000
0000
1000
0100
0020
0030
,
0000
0201
0000
0000
0300
0000
0000
0000
,
0110
0000
0101
0000
0000
0100
0200
0000
,
0010
0000
0001
0010
0000
0010
0000
0000
,
0300
0000
0000
1001
0110
0110
2002
0000
,
0000
0000
0000
3003
0000
1010
2020
0000
,
3030
0000
0000
1010
1010
1010
0102
0000
,
0000
0000
0003
0000
0011
1100
0220
0000
,
0000
0000
0330
0000
1000
0010
0200
0000
,
0300
0201
0000
0300
,
1000
0000
0010
0000
0000
0100
2002
0000
,
0000
0000
3003
0000
,
0010
1000
0100
1010
,
0000
2010
0000
0000
0000
0000
3000
0000
,
0001
0100
1000
0100
0001
1000
2010
0000
,
0000
3000
0000
0000
0010
0000
0010
0000
,
0100
1000
0001
1100
,
0000
0001
0000
0000
0100
0000
0020
0000
,
0000
0000
0030
0000
1100
1100
0022
0000
,
0033
2200
3300
0000
1100
0000
0022
0000
,
0033
0220
0330
2200
,
3300
0000
0000
1000
0100
0010
0100
0000
,
0000
0020
0000
0030
0000
1000
0000
0100
,
0000
0000
0000
0001
0100
1000
0201
0000
,
0000
0300
0201
0000
0000
0300
0200
0300
,
0000
0110
0000
0000
0110
0000
2002
0000
,
0000
0000
3003
0000
1000
0100
0010
0020
,
0030
0000
1002
0000
0000
1000
0000
1003
,
0000
0000
2010
0000
0000
3000
0000
2010
,
0000
3000
0000
0000
0110
0110
0110
2002
,
0000
0000
0000
0000
0000
3003
0000
0012
,
0000
0100
0000
0010
0003
0000
0000
0220
,
0000
0000
0330
1002
,
0100
1000
0100
1000
,
0100
0000
1003
0000
0000
0010
0001
0200
,
0000
0300
0010
0000
0000
0001
0000
0020
,
0030
0000
1002
0000
0000
0000
0000
0100
,
0000
0003
0000
0000
1000
0001
0010
2000
,
0000
3000
0110
0000
0000
1001
0000
0220
,
0000
0330
0000
0000
1010
0110
1010
2020
,
0000
0000
0000
0000
0000
0000
3030
0000
0000
2020
0000
0000
3030
0000
0000
0000
0000
0000
0000
0000
1000
0000
0100
0000
,
0010
0000
0001
0000
0000
0000
0100
0000
0000
0000
0000
0000
0000
0000
0000
0100
0000
0000
0000
0000
1000
0000
0100
0000
,
0010
0000
0001
0000
0000
0000
0002
0000
0000
0000
0000
0000
0003
0000
0000
0010
0000
0000
0100
0000
0000
2000
0000
0000
,
3000
0000
0011
0000
0000
1100
0000
0011
,
0000
2002
0000
0000
,
0000
0000
3003
0000
1100
1100
1100
2001
,
0000
0000
3000
0120
0000
0000
0030
2100
,
0000
0000
0000
0000
0000
0000
3000
0102
,
0000
0000
0000
0000
0000
0000
0003
0201
,
0000
0000
0000
0000
,
0000
0000
0000
0300
0000
0100
0100
0100
,
0200
0000
0300
0011
,
0100
0000
0000
0202
0000
0000
0303
0000
,
100M
0000
0M00
0010
M000
0000
010M
0000
,
0M00
1000
0000
0000
0001
0000
0001
0000
,
0001
0010
0100
0000
0001
0010
0100
0000
0001
0010
0100
0000
,
0001
0010
0100
0000
0000
0000
1100
0000
0000
1000
0000
0000
,
1100
0000
0000
1100
0000
0000
1100
0000
,
1002
0000
0000
0000
0000
1000
0100
0010
,
0010
0000
0000
0003
0000
0000
1010
0000
,
2020
3030
0202
0303
,
1M00
0000
0000
0000
0000
0000
0000
0000
0000
0010
0M00
0000
0000
0000
0000
0000
0000
0000
1000
0000
0M00
0000
0000
0000
,
0000
1010
0101
0101
,
0001
0010
0100
0000
0000
0001
0010
0100
0000
0000
0001
0010
,
0100
0100
1000
0100
,
0001
0100
1010
0100
0010
0001
0100
0010
,
0000
0100
0000
0001
0000
0100
0001
0000
,
0001
0010
0100
0100
1000
0010
0100
0010
,
0000
0001
2010
0000
3000
0000
0101
1100
,
0101
1100
0101
1100
0101
1100
0101
1100
,
1001
0000
0110
0000
1001
0000
0110
0110
,
0000
0010
0100
0010
0100
0010
0100
0010
,
0102
0000
0000
0003
0000
0000
0010
1000
,
0100
0001
0000
1000
0000
0001
0100
1000
,
0010
0000
0100
0000
0010
0000
1001
0100
,
0000
0010
0000
0100
0000
0010
0110
0110
,
1001
0000
1001
0220
0330
0000
1000
0001
,
0010
0100
0000
0010
0000
1000
0010
0100
,
0010
0000
1000
0000
0010
0000
1000
0010
,
0000
0001
0000
1000
0000
0010
0100
1001
,
2002
0000
0000
3003
,
1000
0100
0010
1000
0100
0010
1000
0100
0010
1000
0100
0010
,
0000
1000
0100
0010
0001
0000
1000
0100
,
0010
0000
0001
0010
0020
0030
1001
0110
,
0000
1001
0110
0110
0200
0300
0010
0100
,
0220
0330
1001
1001
2002
3003
0100
0010
,
0000
0010
0100
0010
2002
3003
0010
0100
,
0220
0330
0100
1001
0220
0330
1001
0110
,
0000
1000
0100
0010
0002
0003
0010
0100
,
0010
0001
1000
0010
0100
0000
0001
0100
,
0000
2002
0000
0000
0000
0000
0000
0000
,
0000
0000
0000
3003
,
0000
1000
0100
0010
0001
0000
0000
1000
0100
0010
0001
0000
,
0000
1000
0100
0010
0001
0000
0000
1000
0100
0010
0001
0000
,
0000
0000
0100
0010
1000
1000
0000
0010
,
0100
0001
0001
0100
0100
1000
0000
2002
,
0000
0000
0000
3003
,
1000
0100
0010
0001
0000
0000
0000
0000
0000
0000
0000
0000
;

//---------------dance-single - Copied from Copied f----------------
#NOTES:
     dance-single:
     Copied from Copied f:
     Medium:
     4:
     0.504,0.756,0.200,0.432,0.000,871.000,60.000,130.000,0.000,0.000:
1000
0100
1000
1001
,
0001
0010
0100
1000
0000
0010
0100
1000
,
0000
0010
0100
1000
0000
0100
0010
0000
,
1000
0100
0010
0001
0000
1000
0100
0010
,
0000
0100
0010
0001
0000
0010
0100
0000
,
1001
0010
0100
1000
0000
0001
0010
0100
,
0000
0010
0100
1000
0000
0100
0010
0000
,
1001
0100
0010
0100
0000
0001
0010
0100
,
0000
0010
0100
1000
0000
0100
1000
0000
,
2002
0000
0000
3003
,
1000
1000
0001
0001
,
0100
0100
0010
0010
,
1001
1001
0100
0010
,
0002
0000
0000
0003
,
0100
0000
0010
0100
0000
0010
0000
0000
,
2000
0000
0000
0000
3000
0000
1000
0200
,
0000
0000
0000
0000
0000
0300
0010
0000
,
0002
0000
0003
1000
,
0200
0300
0010
0100
,
2000
0000
0000
3000
,
0100
0000
0100
0010
0000
0010
0000
0000
,
2000
0000
0000
3000
,
0010
0000
0010
0100
0000
0100
0000
0000
,
2000
0000
3000
0100
,
0002
0000
0000
0000
0000
0003
0000
0100
,
0000
0002
0000
0000
0000
0003
0000
1000
,
0000
0200
0000
0300
0010
0000
0000
1000
,
0000
0020
0000
0000
0000
0030
0000
0001
,
0010
0200
0000
0000
0000
0300
0000
0000
,
0010
0000
0000
0100
0000
1000
0010
0000
,
0001
0000
0000
0001
0100
0000
0010
0000
,
0002
0000
0000
0000
0000
0003
0000
1000
,
0200
0000
0000
0000
0000
0300
0000
0010
,
0000
2000
0000
0000
0000
3000
0000
0001
,
0000
0200
0000
0300
0020
0000
0030
1000
,
0000
0200
0000
0000
0000
0300
0000
0000
,
0100
0000
0010
0100
0010
0100
0000
0000
,
0000
0000
0000
0001
0000
0010
0001
0000
,
0010
0000
0100
0000
0010
1000
0000
0100
,
0000
0020
0000
0000
0000
0000
0030
1000
,
0002
0000
0000
0000
0000
0003
0000
0010
,
0000
0200
0000
0000
0000
0000
0300
0010
,
0000
2000
0000
3000
0000
0000
0000
0010
,
0100
2000
0000
0000
0000
3000
0000
0010
,
0100
1000
0200
0000
0000
0000
0300
0000
,
0000
0100
0000
0000
0100
0000
0000
0001
,
0000
0200
0000
0000
0300
0000
0000
1000
,
0100
1000
0020
0000
0000
0000
0030
0000
,
0100
0000
0002
0000
0000
0003
0200
0000
,
0300
1000
0100
0010
,
0100
1000
0001
1000
,
0100
1000
0001
0010
,
0001
1000
0001
0001
,
0001
0000
0010
0000
0000
0100
0000
0000
,
1001
0000
0020
0000
0000
0000
0030
1000
,
0010
0100
2000
0000
0000
0000
3000
0000
,
0001
0200
0300
0002
,
0003
1100
0011
0110
,
1100
0110
0000
1001
,
1001
0110
1001
0110
,
1001
0110
1001
0001
,
0110
0000
0001
0010
0001
0100
1000
0100
,
0001
0010
0000
0010
0000
0001
0000
1000
,
0010
0000
0001
1000
0010
0100
1000
0010
,
0001
0010
0001
0010
2000
0000
3000
0000
,
0100
0010
0000
1000
0000
0100
0001
0010
,
0001
0010
0100
0000
0100
0000
1001
0010
,
0100
0000
0110
0000
0001
0000
1000
0100
,
0010
0200
0000
0000
0300
0000
0000
0010
,
0100
1000
0000
0010
0000
0001
0010
0100
,
1000
0100
1000
0000
0001
0000
0100
0000
,
0001
0100
0010
0000
0010
0000
0100
0010
,
0100
0010
0100
0001
0100
0000
0000
0010
,
1000
0010
0000
0100
0000
0010
0000
1000
,
0011
0011
1100
0000
0011
0000
0110
0000
,
1001
1001
0000
0100
0000
0010
0000
0100
,
0010
0100
2000
0000
0000
0000
0000
0000
,
3000
0001
0010
0001
,
0100
0000
0000
1000
0100
0010
0001
0000
,
0001
0010
0100
0000
0010
0100
0010
0000
,
1001
0110
0000
1001
0100
0010
0100
0000
,
0010
0100
1000
0000
0010
0100
0010
0000
,
0010
0100
0000
0100
0001
1000
0010
0000
,
0001
1000
0100
0000
0010
0100
0010
0000
,
0100
0010
0000
0010
0100
0010
0100
0000
,
1000
0010
0001
0001
1000
0010
0001
0000
,
0001
0010
0000
0200
0000
0000
0000
0000
,
0300
0000
0000
1000
0000
0010
0000
1000
,
0000
0010
0000
1000
0000
2000
0000
0000
,
0000
0000
3000
0000
0100
0010
1000
0100
,
0010
0000
0000
0200
0000
0000
0000
0000
,
0300
0000
0000
0001
0000
1000
0010
0000
,
0010
0000
0000
0202
0000
0000
0000
0303
,
0000
0000
1000
0202
0000
0000
0303
0000
,
0000
0000
0001
0000
0200
0000
0000
0300
,
0000
0000
0001
0000
0020
0000
0030
0100
,
0000
1000
0200
0300
,
0000
0000
0010
0001
0100
0000
0100
0001
,
0000
0100
0001
0100
0000
1000
0010
1000
,
0010
0100
1000
0010
0100
1000
0100
1000
,
0001
0010
0100
0010
0200
0000
0000
0000
,
0300
0000
1000
0200
0000
0000
0300
0000
,
0000
0001
0010
0100
0002
0000
0000
0000
,
0000
0000
0003
0010
,
0100
0000
0010
0000
0100
0010
0100
0010
,
0000
1000
0001
1000
,
0001
1010
0000
1010
,
0001
0100
0000
0000
0010
0000
1000
0001
,
0000
0100
0000
0000
0020
0000
0000
0030
,
0000
0000
0001
1000
0000
0100
1000
0000
,
0010
0001
0200
0000
,
0300
0000
0010
0000
0002
0000
0003
0010
,
0000
0000
0100
0000
0020
0000
0000
0030
,
0000
0000
1000
0100
0010
0000
0100
0010
,
0000
0010
0000
0000
0000
0000
0100
0000
,
1000
0010
0000
0000
0000
0100
0000
0100
,
0010
0010
2020
0000
,
3030
0000
0000
0001
0001
0000
1000
0100
,
1000
0100
1000
0010
0200
0000
0000
0300
,
0000
0000
0001
0000
0100
0000
0000
1000
,
0000
0110
0002
0000
,
0003
0000
0000
0010
0100
2000
0000
0000
,
0000
0000
3000
0000
0000
0100
0000
0000
,
0010
0000
0000
0100
0000
0020
0000
0030
,
0000
0000
0010
0001
0100
2000
0000
3000
,
0000
0000
0000
0010
0000
0100
0000
0000
,
0220
0000
0330
0000
0000
0100
1000
0100
,
0001
0010
0001
0010
1000
0100
1000
0100
,
0010
0001
0010
0001
1000
0010
1000
0010
,
0001
0010
0001
0100
1000
0010
0100
0010
,
0100
0001
0010
0100
1000
0100
0000
0000
,
0010
0000
0000
0100
0000
0020
0000
0000
,
0030
0000
0001
0010
0100
2000
0000
0000
,
0000
0000
3000
0010
0000
0200
0000
0300
,
0000
1000
0000
0000
0000
0001
0000
1000
,
0000
0100
0000
1000
0000
0010
0000
0001
,
0000
0100
0000
0010
0000
0100
0000
1000
,
0000
0010
0000
1000
0000
0010
0000
0100
,
0000
0001
0000
0010
0000
0000
0100
0100
,
0001
0001
0000
0010
0010
0000
0100
0100
,
0000
0010
0010
0000
0010
0000
2000
0000
,
0000
0000
3000
1000
,
0001
0000
0010
0000
1000
0100
0010
0000
,
0000
0000
0002
0000
0000
0003
0000
0000
,
0010
0000
0100
0000
0000
1000
0202
0000
,
0000
0000
0000
0000
,
0303
0000
0000
1000
0010
0010
0002
0000
,
0000
0000
0000
0003
0000
0010
2000
0000
,
3000
0000
0000
0010
1000
0010
0002
0000
,
0000
0000
0003
0000
0010
0100
0020
0000
,
0000
0000
0030
0000
0001
0010
0200
0000
,
0300
0020
0000
0030
,
0100
0000
0010
0000
0000
0100
0002
0000
,
0000
0000
0003
0000
,
0010
1000
0100
0010
,
0000
2002
0000
0000
0000
0000
3003
0000
,
0010
0100
1000
0100
0010
1000
0020
0000
,
0000
0030
0000
0000
1000
0000
1000
0000
,
0100
0010
0001
0010
,
0000
0001
0000
0000
0100
0000
2000
0000
,
0000
0000
3000
0000
0100
1000
0020
0000
,
0030
0100
0000
0000
0100
0000
0020
0000
,
0030
0020
0030
2000
,
3000
0000
0000
1000
0100
0010
0001
0000
,
0000
0020
0000
0030
0000
1000
0000
0100
,
0000
0000
0000
0010
0100
1000
0002
0000
,
0000
0003
0200
0000
0000
0300
0002
0003
,
0000
0010
0000
0000
0100
0000
0220
0000
,
0000
0000
0330
0000
0000
0010
0100
1000
,
0000
0000
0010
0000
0000
1000
0000
0100
,
0000
0000
0200
0000
0000
0300
0000
0020
,
0000
0030
0000
0000
0100
0010
0100
0002
,
0000
0000
0003
0002
0000
0000
0003
0200
,
0000
0000
0000
0000
0300
0000
0000
0020
,
0000
0000
0030
0002
,
0000
0000
0000
0000
,
0000
0000
0003
0000
0000
0001
0010
0200
,
0000
0300
0010
0000
0000
0001
0000
0020
,
0030
0000
0200
0000
0000
0300
0000
0020
,
0000
0000
0030
0000
1000
0100
0010
2000
,
0000
3000
0100
0000
0000
0001
0000
0200
,
0000
0300
0000
0000
0010
0100
1000
0020
,
0000
0000
0030
2000
3000
0100
0000
0010
,
0000
0100
0000
0010
0000
1000
0000
0010
,
0000
0001
0000
0000
0000
0010
0100
1000
,
0000
0000
0010
0000
0000
0100
0000
0010
,
0000
0020
0000
0000
,
0000
0000
0030
0000
0100
1000
0100
0020
,
0000
0000
0030
0002
0000
0000
0003
2200
,
0000
0000
0000
0000
0000
0000
3300
0022
,
0000
0000
0000
0000
0000
0000
0033
2200
,
0000
0000
0000
0000
,
0000
0000
0000
3300
0000
0001
0010
0100
,
2000
0000
3000
0010
,
0100
0000
0000
2000
0000
0000
3000
0000
,
0100
0000
0000
0010
0000
0000
0100
0000
,
0000
0010
0000
0000
0001
0000
0001
0000
,
0001
1000
0100
0010
,
0001
0100
0010
1000
,
0100
0000
0000
0010
0000
0000
0010
0000
,
0002
0000
0000
0000
,
0000
0000
0000
0003
0000
0000
0010
0000
,
2000
3000
0002
0003
,
0100
0000
0000
0010
0000
0000
1000
0000
,
0000
0010
0001
0100
,
0001
0100
0010
0001
,
0100
0010
1000
0100
,
1000
0100
1010
0100
0010
0100
0010
0100
,
0000
0100
0000
0010
0000
0100
0010
0000
,
0001
0010
0001
0010
1000
0100
1000
0100
,
0000
0010
2000
0000
3000
0000
0001
0010
,
0001
0010
0001
0010
0001
0010
0000
0010
,
0101
0000
0101
0000
0101
0000
1010
1010
,
0000
0010
0100
0010
0100
0010
0100
0010
,
0202
0000
0000
0303
0000
0000
0100
1000
,
0100
0001
0000
0010
0000
0001
0100
1000
,
0100
0000
0010
0000
0010
0000
1000
0100
,
0000
1000
0000
0100
0000
1000
0100
0010
,
0001
0000
1000
0010
0000
0000
0100
0001
,
0010
0100
0000
0010
0000
0001
0010
0100
,
0010
0000
0100
0000
0100
0000
1000
0010
,
0000
0100
0000
0010
0000
0010
0100
1000
,
0022
0000
0000
0033
,
0000
1001
0000
1001
0000
1001
0000
1001
,
0000
0010
0100
0010
0100
0000
0010
0100
,
0010
0000
0100
0010
0010
0000
0001
0010
,
0000
1000
0100
1000
0001
0000
0001
0010
,
0001
0000
1000
0100
0001
0000
0100
0010
,
0000
0010
0100
0010
1000
0000
0010
0100
,
0010
0000
1000
0001
0010
0000
0001
0100
,
0000
0000
0100
0010
0001
0000
1000
0100
,
0010
0001
1000
0100
0010
0000
0010
0010
,
0000
0220
0000
0000
0000
0000
0000
0000
,
0000
0000
0000
0330
,
0000
1000
0000
0100
,
0000
0010
0000
0001
,
0000
0000
0001
0010
0100
0100
0000
0010
,
0010
0001
0001
0100
0100
0100
0000
0202
,
0000
0000
0000
0303
,
1000
0001
0000
0000
;

//---------------dance-single - Copied from Copied f----------------
#NOTES:
     dance-single:
     Copied from Copied f:
     Easy:
     3:
     0.345,0.477,0.047,0.319,0.000,617.000,14.000,96.000,0.000,0.000:
0000
0000
0000
1001
,
0001
0000
0001
0000
0000
0100
1000
0000
,
0000
0100
1000
0000
0000
1000
0100
0000
,
0010
0000
0010
0000
0000
0001
0010
0000
,
0000
0001
0010
0000
0000
0001
0010
0000
,
0100
0000
0100
0000
0000
0100
0010
0000
,
0000
0100
0010
0000
0000
0100
0010
0000
,
1000
0000
0010
0000
0000
0001
0010
0000
,
0000
0001
0010
0000
0000
0100
0010
0000
,
0200
0000
0000
0300
,
1001
0000
1001
0000
,
0110
0000
0110
0000
,
1001
0000
0100
0010
,
0002
0000
0000
0003
,
0100
0000
0100
0010
0000
0010
0000
0000
,
0020
0000
0000
0000
0000
0030
0000
0200
,
0000
0000
0000
0000
0000
0000
0000
0300
,
0002
0000
0000
0003
,
0200
0300
0100
0100
,
2000
0000
0000
3000
,
0100
0000
0100
0010
0000
0010
0000
0000
,
0020
0000
0000
0030
,
0010
0000
0010
0100
0000
0100
0000
0000
,
0200
0000
0000
0300
,
2000
0000
0000
0000
0000
0000
0000
3000
,
0000
0002
0000
0000
0000
0000
0000
0003
,
0000
0100
0000
0000
0010
0000
0000
0100
,
0000
0010
0000
0000
0000
0000
0000
0001
,
0010
0200
0000
0000
0000
0300
0000
0000
,
0020
0000
0000
0000
,
0030
0000
0000
0010
0100
0000
0100
0000
,
0020
0000
0000
0030
,
0200
0000
0000
0000
0000
0000
0000
0300
,
0000
2000
0000
0000
0000
0000
0000
3000
,
0000
0100
0000
0000
0010
0000
0000
0000
,
0000
0200
0000
0000
0000
0300
0000
0000
,
0000
0000
0010
0100
0010
0000
0010
0000
,
0000
0002
0000
0000
0000
0000
0000
0000
,
0000
0000
0000
0003
0100
1000
0000
1000
,
0000
0020
0000
0000
0000
0000
0000
0030
,
0000
0002
0000
0000
0000
0000
0000
0003
,
0000
0200
0000
0000
0000
0000
0000
0000
,
0300
2000
0000
0000
0000
0000
3000
0000
,
0000
0020
0000
0000
0000
0000
0000
0030
,
0000
0010
0200
0000
0000
0000
0000
0000
,
0300
0010
0000
0000
0010
0000
0000
0010
,
0000
0100
0000
0000
0000
0000
1000
0100
,
0010
0002
0000
0000
0000
0000
0003
0000
,
0100
0010
0000
0100
,
0000
1000
0010
0000
,
1000
0000
1000
0000
,
1000
0000
0010
0000
,
1000
0000
0001
0000
,
0010
0000
0010
0000
0000
0100
0000
0000
,
0020
0000
0000
0030
,
0010
0100
2000
0000
0000
0000
0000
0000
,
3000
0000
0200
0000
0000
0300
0002
0000
,
0003
0100
0000
0010
,
0000
0100
0000
0100
,
0100
0010
0010
0010
,
0100
0100
0100
0100
,
0000
0000
0010
0000
0010
0000
0010
0100
,
0001
0100
0000
0010
0000
0010
0000
0010
,
0001
0000
0100
0000
0100
0000
0100
1000
,
0100
0000
0000
0010
0002
0000
0000
0000
,
0003
0100
0100
0000
0000
0000
0000
0000
,
0001
0000
0100
1000
,
0100
0010
0000
0000
0100
0000
0010
0000
,
0000
0100
0020
0000
0000
0000
0030
0000
,
0000
0010
0100
0010
0000
0100
0000
0000
,
1000
0000
1000
0001
,
0001
0010
0000
0000
0010
0000
0010
0000
,
0000
0000
0000
0010
0100
0000
0000
0000
,
0000
0010
0100
0010
0000
0100
0000
0000
,
0100
1000
0100
0000
0010
0000
0010
0000
,
0010
0100
0000
0010
0000
0010
0000
0010
,
0000
0100
0020
0000
0000
0000
0000
0000
,
0000
0000
0000
0000
0000
0000
0000
0030
,
0000
0000
0000
0100
0000
0100
0010
0000
,
0000
0010
0001
0000
0000
0010
0001
0000
,
0100
0010
0000
0001
0000
0010
0000
0000
,
0100
0010
0000
0000
0100
0010
0000
0000
,
0100
0010
0000
0100
0000
0100
0000
0000
,
0010
0100
0000
0000
0001
0010
0000
0000
,
0010
0100
0000
0000
0000
1000
0000
0000
,
0000
0100
0000
0001
0000
0010
0000
0001
,
0000
0010
0000
0020
0000
0000
0000
0000
,
0000
0000
0030
1000
0000
0010
0000
1000
,
0000
0010
0000
1000
0000
0010
0000
2000
,
0000
0000
0000
0000
,
0000
0000
3000
0200
0000
0000
0000
0000
,
0000
0000
0300
0001
0000
0001
0010
0000
,
0010
0000
0000
0202
0000
0000
0000
0000
,
0303
0000
0000
0202
0000
0000
0000
0000
,
0303
0000
0000
0000
0200
0000
0000
0300
,
0000
0000
0010
0000
0010
0000
0000
0100
,
0000
0100
0200
0000
,
0300
0000
0000
0010
0000
0010
0100
0000
,
0100
0000
0000
0100
0000
1000
0000
0100
,
0000
1000
0000
0010
0000
0001
0000
0010
,
0000
0100
0000
0200
0000
0000
0000
0000
,
0300
0000
0000
0020
0000
0000
0030
0000
,
0000
0000
0100
0010
0002
0000
0000
0000
,
0000
0000
0003
0010
,
0010
0010
0100
0100
,
0000
1000
0000
1000
,
0000
0001
0000
0001
,
0010
0000
0100
0000
1000
0000
1000
0100
,
0000
0100
0000
0000
0020
0000
0000
0030
,
0000
0000
0100
2000
0000
0000
0000
0000
,
3000
0000
0200
0000
,
0300
0010
0002
0000
,
0000
0000
0003
0000
0020
0000
0000
0030
,
0000
0000
0000
0000
0100
0000
0100
0010
,
0000
0010
0000
0000
0200
0000
0000
0000
,
0300
0000
0000
0000
0010
0000
0010
0100
,
0000
0100
0000
0000
2000
0000
0000
0000
,
3000
0000
0000
0010
0002
0000
0000
0000
,
0000
0000
0003
0000
0200
0000
0000
0300
,
0000
0100
0100
0000
,
0000
0100
0002
0000
,
0000
0000
0003
0000
0000
2000
0000
0000
,
0000
0000
3000
0000
0000
0010
0000
0000
,
0010
0000
0000
0100
0000
0100
0000
0000
,
0000
0000
0000
0010
0100
1000
0000
0000
,
0000
0000
0000
0100
0000
0100
0000
0000
,
0100
0000
0000
0000
0000
0100
0000
0100
,
0000
0010
0000
0010
0000
0100
0000
0100
,
0000
0001
0000
0001
0000
0010
0000
0010
,
0000
0010
0000
0100
0000
0100
0000
0100
,
0000
0001
0000
0001
0000
0001
0000
0000
,
0010
0000
0000
0010
0000
0010
0000
0000
,
0000
0000
0100
0010
0000
0020
0000
0000
,
0000
0000
0000
0030
0000
0200
0000
0000
,
0000
0000
0000
0300
0000
0100
0000
1000
,
0000
0100
0000
1000
0000
0001
0000
0010
,
0000
0001
0000
0010
0000
1000
0000
0100
,
0000
1000
0000
0100
0000
1000
0000
0001
,
0000
0010
0000
0001
0000
0010
0000
0010
,
0000
0100
0000
0100
0000
0010
0000
0010
,
0000
0010
0000
0100
0000
2000
0000
0000
,
0000
0000
0000
0000
,
3000
0000
0000
0000
0000
0100
0010
0000
,
0000
0020
0000
0000
0030
0000
0000
0000
,
0010
0010
0000
0200
,
0000
0000
0000
0000
,
0300
0000
0000
0000
0100
0010
0002
0000
,
0000
0000
0003
2000
,
0000
0000
0000
3000
0000
0010
2000
0000
,
0000
0000
3000
0000
0000
0100
0020
0000
,
0000
0030
0000
0200
,
0300
0020
0000
0030
,
0010
0010
0000
0200
,
0000
0000
0300
0000
,
1001
0100
0100
0100
,
0000
0020
0000
0000
0000
0000
0030
0000
,
0000
0000
0000
0100
0010
0001
0020
0000
,
0000
0030
0000
0000
1000
0000
0000
0000
,
0100
0000
0001
0020
,
0000
0030
0100
2000
,
0000
3000
0100
0020
,
0000
0030
0100
0020
,
0000
0000
0030
0100
,
0000
0000
0000
0010
0100
0010
0100
0000
,
0000
0010
0000
0000
0000
1000
0000
0100
,
0000
0000
0000
0000
0100
0010
0100
0000
,
0000
0100
0000
0010
,
0000
0010
0000
0000
0100
0000
0200
0000
,
0000
0000
0300
0000
0100
0010
0100
0010
,
0000
0000
0010
0000
0000
0100
0000
0100
,
0000
0000
0200
0000
0000
0300
0000
0010
,
0000
0000
0000
0000
0000
0010
0100
0020
,
0000
0000
0000
0000
0000
0030
0000
0200
,
0000
0000
0000
0000
,
0000
0000
0300
0002
,
0000
0000
0000
0000
,
0000
0000
0003
0000
0000
0100
0010
0100
,
0000
0000
0010
0000
0000
0100
0000
0100
,
0000
0100
0000
0020
,
0000
0000
0030
0000
0010
0100
0010
0100
,
0000
0000
0100
0000
0000
0010
0000
0100
,
0000
0000
0000
0000
0000
0100
1000
1000
,
0000
0000
0000
1000
0000
0000
1000
0000
,
0000
0020
0000
0000
0000
0030
0000
0000
,
0010
0000
0010
0000
0000
0000
0100
0100
,
0000
0000
0010
0000
0000
0100
0000
0010
,
0000
0020
0000
0000
,
0000
0000
0030
0000
0000
1000
0100
0020
,
0000
0030
0000
0002
0000
0000
0003
0220
,
0000
0000
0000
0000
,
0000
0000
0000
0000
,
0000
0000
0000
0000
,
0000
0000
0000
0330
0000
0000
0010
0100
,
2000
0000
0000
0000
,
3000
0000
0000
0020
0000
0000
0030
0000
,
0100
0000
0000
0100
0000
0000
0100
0000
,
0000
0010
0000
0000
0010
0000
0000
0000
,
0010
1000
0100
0010
,
0001
1000
0100
0010
,
0001
0000
0000
0010
0000
0000
0010
0000
,
0200
0000
0000
0000
,
0000
0000
0000
0300
0000
0000
0010
0000
,
0100
0000
0010
0000
,
0100
0010
0010
0100
,
0010
0010
0001
0100
,
0001
0100
0001
0100
,
0001
0100
0001
0100
,
0000
0100
0000
0010
0000
0100
0000
0010
,
0000
0100
0000
0010
0000
0100
0010
0010
,
0000
0000
0000
0010
0100
0010
0100
0010
,
0000
0100
1000
0000
0000
0000
0001
0010
,
0000
0100
0000
0100
0000
0100
0001
0010
,
0001
0000
0001
0000
0001
0000
0010
0010
,
0000
0010
0000
0010
0000
0010
0100
0010
,
0200
0000
0000
0300
,
0000
0010
0000
0010
0000
0010
0100
1000
,
0100
0000
0010
0000
0010
0000
0010
0100
,
0000
1000
0000
0000
0000
1000
0000
0010
,
0000
0000
1000
0020
0000
0000
0000
0000
,
0030
0000
0000
0010
0000
0010
0000
0100
,
0000
0000
0100
0000
0100
0000
0100
0010
,
0000
0100
0000
0100
0000
1000
0100
0010
,
2002
0000
0000
0000
,
0000
0000
0000
3003
,
0000
0010
0100
0010
0100
0000
0000
0100
,
0010
0000
0000
0100
0010
0000
0010
0100
,
0000
0010
0100
0010
0100
0000
0000
0010
,
0100
0000
0000
0010
0100
0000
0100
0010
,
0000
0010
0100
0010
0100
0000
0010
0100
,
0010
0000
0100
0010
0100
0000
0010
0100
,
0000
0010
0100
0010
0000
0000
1000
0100
,
0010
0001
1000
0100
0010
0000
0001
0000
,
0000
0220
0000
0000
0000
0000
0000
0000
,
0000
0000
0000
0000
,
0000
0000
0000
0000
,
0000
0000
0000
0330
,
0000
0001
0100
0000
,
0100
0000
0001
0000
0100
0000
0000
2002
,
0000
0000
0000
3003
,
0000
1001
0000
0000
;
